My-mobile
Právě je sob 17.04.21 15:12

reklama

Všechny časy jsou v UTC + 1 hodina



Odeslat nové téma Odpovědět na téma  [ Příspěvek: 1 ] 
 Pátý / Five, The (2016) 
Autor Zpráva
Hlavní uploader
Uživatelský avatar

Registrován: pát 06.03.15 18:06
Příspěvky: 1006
Poděkovali mu: 265 x
Medaile: 4
Member (1) Specially member (1) High calibre silver (1) Team member bronze (1)

Příspěvek Pátý / Five, The (2016)
Obrázek

BluRay m720p / x264 CZ


Complete name : The.Five.UK.S01E01.m720p.BluRay.x264.CZ.mkv
Format : Matroska
Format version : Version 4 / Version 2
File size : 380 MiB
Duration : 44 min 26 s
Overall bit rate : 1 195 kb/s

Video
ID : 1
Format : AVC
Format/Info : Advanced Video Codec
Format profile : High@L4.1
Format settings, CABAC : Yes
Format settings, ReFrames : 4 frames
Codec ID : V_MPEG4/ISO/AVC
Duration : 44 min 26 s
Bit rate : 1 000 kb/s
Width : 1 280 pixels
Height : 544 pixels
Display aspect ratio : 2.35:1
Frame rate mode : Constant
Frame rate : 25.000 FPS
Color space : YUV
Chroma subsampling : 4:2:0
Bit depth : 8 bits
Scan type : Progressive
Bits/(Pixel*Frame) : 0.057
Stream size : 311 MiB (82%)
Default : Yes
Forced : No
Color range : Limited
Color primaries : BT.709
Transfer characteristics : BT.709
Matrix coefficients : BT.709

Audio
ID : 2
Format : AC-3
Format/Info : Audio Coding 3
Format settings, Endianness : Big
Codec ID : A_AC3
Duration : 44 min 26 s
Bit rate mode : Constant
Bit rate : 192 kb/s
Channel(s) : 2 channels
Channel positions : Front: L R
Sampling rate : 48.0 kHz
Frame rate : 31.250 FPS (1536 spf)
Bit depth : 16 bits
Compression mode : Lossy
Stream size : 61.0 MiB (16%)
Title : Stereo
Language : Czech
Service kind : Complete Main
Default : Yes
Forced : No


1. série s CZ dabingem

Linky v CODE mohou vidět jen registrovaní uživatelé. Přihlaš se nebo registruj na fórum.


23.4.2017: Přidán 3. díl
30.4.2017: Přidán 4. díl
20.5.2017: Přidán 5. a 6. díl
21.5.2017: Přidán 7. díl
5.11.2017: Doplněny zbývající díly série + 1. série je kompletní


ned 05.11.17 14:51
Profil
Zobrazit příspěvky za předchozí:  Seřadit podle  
Odeslat nové téma Odpovědět na téma  [ Příspěvek: 1 ] 

Všechny časy jsou v UTC + 1 hodina


Kdo je online

Uživatelé procházející toto fórum: Žádní registrovaní uživatelé a 1 návštěvník


Nemůžete zakládat nová témata v tomto fóru
Nemůžete odpovídat v tomto fóru
Nemůžete upravovat své příspěvky v tomto fóru
Nemůžete mazat své příspěvky v tomto fóru

Hledat:
Přejít na:  

FacebookTwitter



Toplist Heureka Bannery
News News Site map Site map SitemapIndex SitemapIndex RSS Feed RSS Feed Channel list Channel list

[E-mail my-mobile.cz]

Zobrazit pro
Mobil | Klasicky


Powered by phpBB © phpBB Group.