My-mobile
Právě je stř 21.04.21 17:59

reklama

Všechny časy jsou v UTC + 1 hodina



Odeslat nové téma Odpovědět na téma  [ Příspěvek: 1 ] 
 Sedmilhářky / Big Little Lies (2017) 
Autor Zpráva
Hlavní uploader
Uživatelský avatar

Registrován: pát 06.03.15 18:06
Příspěvky: 1006
Poděkovali mu: 265 x
Medaile: 4
Member (1) Specially member (1) High calibre silver (1) Team member bronze (1)

Příspěvek Sedmilhářky / Big Little Lies (2017)
Obrázek

WEB-DL 720p / x264 CZ

1. série s CZ dabingem


Complete name : Big.Little.Lies.S01E01.Somebodys.Dead.720p.HBO.WEB-DL.H.264.CZ.mkv
Format : Matroska
Format version : Version 4 / Version 2
File size : 1.06 GiB
Duration : 51 min 8 s
Overall bit rate mode : Variable
Overall bit rate : 2 959 kb/s
Encoded date : UTC 2017-03-06 15:01:21
Writing application : mkvmerge v9.8.0 ('Kuglblids') 64bit
Writing library : libebml v1.3.4 + libmatroska v1.4.5

Video
ID : 1
Format : AVC
Format/Info : Advanced Video Codec
Format profile : Main@L3.2
Format settings, CABAC : Yes
Format settings, ReFrames : 4 frames
Codec ID : V_MPEG4/ISO/AVC
Duration : 51 min 8 s
Bit rate mode : Variable
Bit rate : 2 765 kb/s
Maximum bit rate : 3 510 kb/s
Width : 1 280 pixels
Height : 720 pixels
Display aspect ratio : 16:9
Frame rate mode : Constant
Frame rate : 23.976 (24000/1001) FPS
Color space : YUV
Chroma subsampling : 4:2:0
Bit depth : 8 bits
Scan type : Progressive
Bits/(Pixel*Frame) : 0.125
Stream size : 1 011 MiB (93%)
Default : Yes
Forced : No

Audio
ID : 2
Format : AC-3
Format/Info : Audio Coding 3
Mode extension : CM (complete main)
Format settings, Endianness : Big
Codec ID : A_AC3
Duration : 51 min 8 s
Bit rate mode : Constant
Bit rate : 192 kb/s
Channel(s) : 2 channels
Channel positions : Front: L R
Sampling rate : 48.0 kHz
Frame rate : 31.250 FPS (1536 spf)
Bit depth : 16 bits
Compression mode : Lossy
Stream size : 70.2 MiB (6%)
Language : Czech
Default : Yes
Forced : No


Linky v CODE mohou vidět jen registrovaní uživatelé. Přihlaš se nebo registruj na fórum.


Naposledy upravil Azorp dne pon 24.04.17 21:55, celkově upraveno 1
reuploaded


pon 24.04.17 21:55
Profil
Zobrazit příspěvky za předchozí:  Seřadit podle  
Odeslat nové téma Odpovědět na téma  [ Příspěvek: 1 ] 

Všechny časy jsou v UTC + 1 hodina


Kdo je online

Uživatelé procházející toto fórum: Žádní registrovaní uživatelé a 1 návštěvník


Nemůžete zakládat nová témata v tomto fóru
Nemůžete odpovídat v tomto fóru
Nemůžete upravovat své příspěvky v tomto fóru
Nemůžete mazat své příspěvky v tomto fóru

Hledat:
Přejít na:  

FacebookTwitter



Toplist Heureka Bannery
News News Site map Site map SitemapIndex SitemapIndex RSS Feed RSS Feed Channel list Channel list

[E-mail my-mobile.cz]

Zobrazit pro
Mobil | Klasicky


Powered by phpBB © phpBB Group.