My-mobile
Právě je pon 19.04.21 04:55

reklama

Všechny časy jsou v UTC + 1 hodina



Odeslat nové téma Odpovědět na téma  [ Příspěvků: 2 ] 
 Mrtvý bod / Blindspot (2015) 
Autor Zpráva
Hlavní uploader
Uživatelský avatar

Registrován: pát 06.03.15 18:06
Příspěvky: 1006
Poděkovali mu: 265 x
Medaile: 4
Member (1) Specially member (1) High calibre silver (1) Team member bronze (1)

Příspěvek Mrtvý bod / Blindspot (2015)
Obrázek

BluRay 720p / x264 CZ

1. série s CZ dabingem


1. Bílá místa (Woe Has Joined)
2. Výkřik do tmy (A Stray Howl)
3. Pohřešovaná (Eight Slim Grins)
4. Terminál (Bone May Rot)
5. Mrtví neumírají (Split the Law)
6. Trakzer (Cede Your Soul)
7. Tři věže (Sent on Tour)
8. Zaříznout řezníky (Persecute Envoys)
9. Psinec Ashwell Creek (Authentic Flirt)
10. Probuzení (Evil Handmade Instrument)
11. Temné ostrovy (Cease Forcing Enemy)
12. Zabití v boji (Scientists Hollow Fortune)
13. Erase Weary Youth (Erase Weary Youth)
14. Rules in Defiance (Rules in Defiance)
15. Older Cutthroat Canyon (Older Cutthroat Canyon)
16. Any Wounded Thief (Any Wounded Thief)
17. Mans Telepathic Loyal Lookouts (Mans Telepathic Loyal Lookouts)
18. One Begets Technique (One Begets Technique)
19. Trénink obrany (In the Comet of Us)
20. Němý svědek (Swift Hardhearted Stone)
21. Of Whose Uneasy Route (Of Whose Uneasy Route)
22. If Love a Rebel, Death Will Render (If Love a Rebel, Death Will Render)
23. Why Await Life's End (Why Await Life's End)

Linky v CODE mohou vidět jen registrovaní uživatelé. Přihlaš se nebo registruj na fórum.


Naposledy upravil Azorp dne pát 21.04.17 19:46, celkově upraveno 1

čtv 20.04.17 00:23
Profil
Hlavní uploader
Uživatelský avatar

Registrován: pát 06.03.15 18:06
Příspěvky: 1006
Poděkovali mu: 265 x
Medaile: 4
Member (1) Specially member (1) High calibre silver (1) Team member bronze (1)

Příspěvek Re: Mrtvý bod / Blindspot (2015)
WEBRip m720p / x264 CZ

2. série s CZ dabingem


Complete name : Blindspot.S02E01.m720p.WEB-HD.x264.CZ.mkv
Format : Matroska
Format version : Version 4 / Version 2
File size : 342 MiB
Duration : 43 min 3 s
Overall bit rate : 1 112 kb/s

Video
ID : 1
Format : AVC
Format/Info : Advanced Video Codec
Format profile : High@L4
Format settings, CABAC : Yes
Format settings, ReFrames : 5 frames
Codec ID : V_MPEG4/ISO/AVC
Duration : 43 min 3 s
Bit rate : 918 kb/s
Width : 1 280 pixels
Height : 720 pixels
Display aspect ratio : 16:9
Frame rate mode : Constant
Frame rate : 23.976 (24000/1001) FPS
Color space : YUV
Chroma subsampling : 4:2:0
Bit depth : 8 bits
Scan type : Progressive
Bits/(Pixel*Frame) : 0.042
Stream size : 283 MiB (83%)
Default : Yes
Forced : No

Audio
ID : 2
Format : AC-3
Format/Info : Audio Coding 3
Format settings, Endianness : Big
Codec ID : A_AC3
Duration : 43 min 1 s
Bit rate mode : Constant
Bit rate : 192 kb/s
Channel(s) : 2 channels
Channel positions : Front: L R
Sampling rate : 48.0 kHz
Frame rate : 31.250 FPS (1536 spf)
Bit depth : 16 bits
Compression mode : Lossy
Stream size : 59.1 MiB (17%)
Language : Czech
Service kind : Complete Main
Default : Yes
Forced : No


Linky v CODE mohou vidět jen registrovaní uživatelé. Přihlaš se nebo registruj na fórum.


21.4.2017: Přidán díl 6 a 7
28.4.2017: Přidán 8 a 9 díl
6.5.2017: Přidán 10. a 11. díl
20.5.2017: Přidán 12. - 15. díl + forced tit.
5.11.2014: Přidány ostatní díly 2. série + 2. série kompletní


ned 05.11.17 14:46
Profil
Zobrazit příspěvky za předchozí:  Seřadit podle  
Odeslat nové téma Odpovědět na téma  [ Příspěvků: 2 ] 

Všechny časy jsou v UTC + 1 hodina


Kdo je online

Uživatelé procházející toto fórum: Žádní registrovaní uživatelé a 1 návštěvník


Nemůžete zakládat nová témata v tomto fóru
Nemůžete odpovídat v tomto fóru
Nemůžete upravovat své příspěvky v tomto fóru
Nemůžete mazat své příspěvky v tomto fóru

Hledat:
Přejít na:  
cron

FacebookTwitter



Toplist Heureka Bannery
News News Site map Site map SitemapIndex SitemapIndex RSS Feed RSS Feed Channel list Channel list

[E-mail my-mobile.cz]

Zobrazit pro
Mobil | Klasicky


Powered by phpBB © phpBB Group.