My-mobile
Právě je sob 17.04.21 15:35

reklama

Všechny časy jsou v UTC + 1 hodina



Odeslat nové téma Odpovědět na téma  [ Příspěvků: 2 ] 
 Into the Badlands (2015) 
Autor Zpráva
Hlavní uploader
Uživatelský avatar

Registrován: pát 06.03.15 18:06
Příspěvky: 1006
Poděkovali mu: 265 x
Medaile: 4
Member (1) Specially member (1) High calibre silver (1) Team member bronze (1)

Příspěvek Into the Badlands (2015)
Obrázek

BluRay 1080p x264

1. série s CZ dabingem


Celý název : Into The Badlands S01E01 - The Fort CZ dabing 2015 by Pretorian.mkv
Formát : Matroska
Format_Version : Version 4 / Version 2
Velikost souboru : 973 MiB
Duration/String : 44mn 0s
Celkový BitRate : 3 093 Kbps

Video
ID : 1
Formát : AVC
Formát/ : Advanced Video Codec
Format_Profile : High@L3.1
Format_Settings_CABAC/String : Ano
Format_Settings_RefFrames/String : 2 frame
CodecID : V_MPEG4/ISO/AVC
Duration/String : 44mn 0s
Bit rate : 2 900 Kbps
Šířka : 1 280pixely
Výška : 720pixely
Poměr stran : 16:9
Frame rate : 23,976 fps
ColorSpace : YUV
ChromaSubsampling : 4:2:0
BitDepth/String : 8 bits
ScanType/String : Progressive
Bits/(Pixel*Frame) : 0.131
StreamSize/String : 894 MiB (92%)
Enkódoval : x264 core 115 r1995 c1e60b9
Forced : Ne

Audio
ID : 2
Formát : AC-3
Formát/ : Audio Coding 3
CodecID : A_AC3
Duration/String : 44mn 0s
Bit rate : 192 Kbps
Kanál(y) : 2 kanály
Channel positions : Front: L R
Sampling rate : 48,0 KHz
BitDepth/String : 16 bits
StreamSize/String : 60,4 MiB (6%)
Default : Ano
Forced : Ne


Linky v CODE mohou vidět jen registrovaní uživatelé. Přihlaš se nebo registruj na fórum.


čtv 20.04.17 00:01
Profil
Hlavní uploader
Uživatelský avatar

Registrován: pát 06.03.15 18:06
Příspěvky: 1006
Poděkovali mu: 265 x
Medaile: 4
Member (1) Specially member (1) High calibre silver (1) Team member bronze (1)

Příspěvek Re: Into the Badlands (2015)
Obrázek

WEB-DL 720p x264

2. série s CZ dabingem


Complete name : Into.the.Badlands.S02E01.720p.WEB-DL.H264.CZ.mkv
Format : Matroska
Format version : Version 4 / Version 2
File size : 1.27 GiB
Duration : 43 min 6 s

Video
ID : 1
Format : AVC
Format/Info : Advanced Video Codec
Format profile : High@L3.1
Format settings, CABAC : No
Format settings, ReFrames : 2 frames
Codec ID : V_MPEG4/ISO/AVC
Duration : 43 min 6 s
Bit rate : 4 030 kb/s
Width : 1 280 pixels
Height : 718 pixels
Display aspect ratio : 16:9
Frame rate mode : Constant
Frame rate : 23.976 (24000/1001) FPS
Color space : YUV
Chroma subsampling : 4:2:0
Bit depth : 8 bits
Scan type : Progressive
Bits/(Pixel*Frame) : 0.183
Stream size : 1.21 GiB (95%)
Language : English
Default : Yes
Forced : No
Color range : Limited
Color primaries : BT.709
Transfer characteristics : BT.709
Matrix coefficients : BT.709

Audio
ID : 2
Format : AC-3
Format/Info : Audio Coding 3
Mode extension : CM (complete main)
Format settings, Endianness : Big
Codec ID : A_AC3
Duration : 43 min 6 s
Bit rate mode : Constant
Bit rate : 192 kb/s
Channel(s) : 2 channels
Channel positions : Front: L R
Sampling rate : 48.0 kHz
Frame rate : 31.250 FPS (1536 spf)
Bit depth : 16 bits
Compression mode : Lossy
Stream size : 59.2 MiB (5%)
Language : Czech
Default : Yes
Forced : No


Linky v CODE mohou vidět jen registrovaní uživatelé. Přihlaš se nebo registruj na fórum.


25.4.2017: Přidán 6. díl
2.5.2017: Přidán 7. díl
9.5.2017: Přidán 8. díl
20.5.2017: Přidán 9. díl
25.5.2017: Přidán 10. díl


čtv 25.05.17 21:22
Profil
Zobrazit příspěvky za předchozí:  Seřadit podle  
Odeslat nové téma Odpovědět na téma  [ Příspěvků: 2 ] 

Všechny časy jsou v UTC + 1 hodina


Kdo je online

Uživatelé procházející toto fórum: Žádní registrovaní uživatelé a 1 návštěvník


Nemůžete zakládat nová témata v tomto fóru
Nemůžete odpovídat v tomto fóru
Nemůžete upravovat své příspěvky v tomto fóru
Nemůžete mazat své příspěvky v tomto fóru

Hledat:
Přejít na:  

FacebookTwitter



Toplist Heureka Bannery
News News Site map Site map SitemapIndex SitemapIndex RSS Feed RSS Feed Channel list Channel list

[E-mail my-mobile.cz]

Zobrazit pro
Mobil | Klasicky


Powered by phpBB © phpBB Group.