My-mobile
Právě je sob 17.04.21 16:13

reklama

Všechny časy jsou v UTC + 1 hodina



Odeslat nové téma Odpovědět na téma  [ Příspěvek: 1 ] 
 Dům z karet / House of Cards (2013) 
Autor Zpráva
Hlavní uploader
Uživatelský avatar

Registrován: pát 06.03.15 18:06
Příspěvky: 1006
Poděkovali mu: 265 x
Medaile: 4
Member (1) Specially member (1) High calibre silver (1) Team member bronze (1)

Příspěvek Dům z karet / House of Cards (2013)
Obrázek

BluRay m720p / x264 CZ

3. série s CZ dabingem

Complete name : House.of.Cards.S03E01.m720p.BluRay.x264.CZ.mkv
Format : Matroska
Format version : Version 4 / Version 2
File size : 352 MiB
Duration : 58 min 27 s
Overall bit rate : 842 kb/s

Video
ID : 1
Format : AVC
Format/Info : Advanced Video Codec
Format profile : High@L4
Format settings, CABAC : Yes
Format settings, ReFrames : 8 frames
Codec ID : V_MPEG4/ISO/AVC
Duration : 58 min 27 s
Bit rate : 648 kb/s
Width : 1 280 pixels
Height : 640 pixels
Display aspect ratio : 2.000
Frame rate mode : Constant
Frame rate : 23.976 (24000/1001) FPS
Color space : YUV
Chroma subsampling : 4:2:0
Bit depth : 8 bits
Scan type : Progressive
Bits/(Pixel*Frame) : 0.033
Stream size : 271 MiB (77%)
Default : Yes
Forced : No

Audio
ID : 2
Format : AC-3
Format/Info : Audio Coding 3
Format settings, Endianness : Big
Codec ID : A_AC3
Duration : 58 min 27 s
Bit rate mode : Constant
Bit rate : 192 kb/s
Channel(s) : 2 channels
Channel positions : Front: L R
Sampling rate : 48.0 kHz
Frame rate : 31.250 FPS (1536 spf)
Bit depth : 16 bits
Compression mode : Lossy
Stream size : 80.3 MiB (23%)
Language : Czech
Service kind : Complete Main
Default : Yes
Forced : No


Linky v CODE mohou vidět jen registrovaní uživatelé. Přihlaš se nebo registruj na fórum.


20.5.2017: Přidán 3. a 4. díl
25.5.2017: Přidán 5. díl
5.11.2017: Doplněny zbylé díly série + série je kompletní


ned 05.11.17 15:07
Profil
Zobrazit příspěvky za předchozí:  Seřadit podle  
Odeslat nové téma Odpovědět na téma  [ Příspěvek: 1 ] 

Všechny časy jsou v UTC + 1 hodina


Kdo je online

Uživatelé procházející toto fórum: Žádní registrovaní uživatelé a 1 návštěvník


Nemůžete zakládat nová témata v tomto fóru
Nemůžete odpovídat v tomto fóru
Nemůžete upravovat své příspěvky v tomto fóru
Nemůžete mazat své příspěvky v tomto fóru

Hledat:
Přejít na:  

FacebookTwitter



Toplist Heureka Bannery
News News Site map Site map SitemapIndex SitemapIndex RSS Feed RSS Feed Channel list Channel list

[E-mail my-mobile.cz]

Zobrazit pro
Mobil | Klasicky


Powered by phpBB © phpBB Group.