My-mobile
Právě je pon 19.04.21 03:26

reklama

Všechny časy jsou v UTC + 1 hodina



Odeslat nové téma Odpovědět na téma  [ Příspěvek: 1 ] 
 Single Man (2017) 
Autor Zpráva
Hlavní uploader
Uživatelský avatar

Registrován: pát 06.03.15 18:06
Příspěvky: 1006
Poděkovali mu: 265 x
Medaile: 4
Member (1) Specially member (1) High calibre silver (1) Team member bronze (1)

Příspěvek Single Man (2017)
Obrázek

1. série s CZ dabingem

Citace:
Format : MPEG-4
Format profile : Base Media
Codec ID : isom (isom/iso2/avc1/mp41)
File size : 86.1 MiB
Duration : 11 min 8 s
Overall bit rate : 1 081 kb/s
Writing application : Lavf57.56.100

Video
ID : 1
Format : AVC
Format/Info : Advanced Video Codec
Format profile : High@L4
Format settings, CABAC : Yes
Format settings, ReFrames : 5 frames
Codec ID : avc1
Codec ID/Info : Advanced Video Coding
Duration : 11 min 8 s
Bit rate : 910 kb/s
Width : 1 280 pixels
Height : 720 pixels
Display aspect ratio : 16:9
Frame rate mode : Constant
Frame rate : 25.000 FPS
Color space : YUV
Chroma subsampling : 4:2:0
Bit depth : 8 bits
Scan type : Progressive
Bits/(Pixel*Frame) : 0.039
Stream size : 72.5 MiB (84%)
Writing library : x264 core 148 r2744 b97ae06
Encoding settings : cabac=1 / ref=5 / deblock=1:0:0 / analyse=0x3:0x113 / me=hex / subme=8 / psy=1 / psy_rd=1.00:0.00 / mixed_ref=1 / me_range=16 / chroma_me=1 / trellis=2 / 8x8dct=1 / cqm=0 / deadzone=21,11 / fast_pskip=1 / chroma_qp_offset=-2 / threads=22 / lookahead_threads=3 / sliced_threads=0 / nr=0 / decimate=1 / interlaced=0 / bluray_compat=0 / constrained_intra=0 / bframes=3 / b_pyramid=2 / b_adapt=1 / b_bias=0 / direct=3 / weightb=1 / open_gop=0 / weightp=2 / keyint=250 / keyint_min=25 / scenecut=40 / intra_refresh=0 / rc_lookahead=50 / rc=crf / mbtree=1 / crf=23.0 / qcomp=0.60 / qpmin=0 / qpmax=69 / qpstep=4 / ip_ratio=1.40 / aq=1:1.00

Audio
ID : 2
Format : AAC
Format/Info : Advanced Audio Codec
Format profile : LC
Codec ID : 40
Duration : 11 min 8 s
Duration_LastFrame : -6 ms
Bit rate mode : Constant
Bit rate : 164 kb/s
Channel(s) : 2 channels
Channel positions : Front: L R
Sampling rate : 44.1 kHz
Frame rate : 43.066 FPS (1024 spf)
Compression mode : Lossy
Stream size : 13.1 MiB (15%)
Language : English
Default : Yes
Alternate group : 1


Linky v CODE mohou vidět jen registrovaní uživatelé. Přihlaš se nebo registruj na fórum.


pon 06.11.17 10:40
Profil
Zobrazit příspěvky za předchozí:  Seřadit podle  
Odeslat nové téma Odpovědět na téma  [ Příspěvek: 1 ] 

Všechny časy jsou v UTC + 1 hodina


Kdo je online

Uživatelé procházející toto fórum: Žádní registrovaní uživatelé a 1 návštěvník


Nemůžete zakládat nová témata v tomto fóru
Nemůžete odpovídat v tomto fóru
Nemůžete upravovat své příspěvky v tomto fóru
Nemůžete mazat své příspěvky v tomto fóru

Hledat:
Přejít na:  
cron

FacebookTwitter



Toplist Heureka Bannery
News News Site map Site map SitemapIndex SitemapIndex RSS Feed RSS Feed Channel list Channel list

[E-mail my-mobile.cz]

Zobrazit pro
Mobil | Klasicky


Powered by phpBB © phpBB Group.